Info

Veronica Mars


6.8
IMDB: 6.8/10 42,879 votes

Durata: 107 min

Released:

Anno: 13 Mar 2014

Direttore:

Premi: 6 nominations.

Budget: 6000000$

Incassi: 3485127$

Stato: Released

Paese: USA

Cast:




Cosa ha fatto Veronica in dieci anni? “Si è trasferita dall’Hearst a Stanford, dove ha completato gli studi,” spiega Thomas. “Poi è andata alla Columbia. Ogni tanto ha fatto ritorno a Neptune per vedere il papà, Mac e Wallace, ma non ha più lavorato come investigatrice privata dalla fine della terza stagione. Ha rovinato al padre la possibilità di essere rieletto e ha deciso che quel percorso aveva portato troppo caos nella sua vita. Ora è nel punto in cui si trovava Tom Cruise all’inizio de Il Socio. E’ laureata, fa parte dell’ordine degli avvocati e sta facendo colloqui con gli studi legali di New York.”

Trailer


Upload on Youtube

Info File

Video
Format : AVC
Format/Info : Advanced Video Codec
Format profile : [email protected]
Format settings, CABAC : Yes
Format settings, ReFrames : 5 frames
Codec ID : V_MPEG4/ISO/AVC
Duration : 1 h 47 min
Bit rate : 8 664 kb/s
Width : 1 920 pixels
Height : 800 pixels
Display aspect ratio : 2.40:1
Frame rate mode : Constant
Frame rate : 23.976 FPS
Color space : YUV
Chroma subsampling : 4:2:0
Bit depth : 8 bits
Scan type : Progressive
Bits/(Pixel*Frame) : 0.235
Stream size : 6.34 GiB (75%)

Audio #1
Format : AC-3
Format/Info : Audio Coding 3
Mode extension : CM (complete main)
Format settings, Endianness : Big
Codec ID : A_AC3
Duration : 1 h 47 min
Bit rate mode : Constant
Bit rate : 384 kb/s
Channel(s) : 6 channels
Channel positions : Front: L C R, Side: L R, LFE
Sampling rate : 48.0 kHz
Frame rate : 31.250 FPS (1536 spf)
Compression mode : Lossy
Stream size : 296 MiB (3%)
Title : Ita AC3
Language : Italian
Default : Yes
Forced : No

Trackers

http://tracker.istole.it:80/
http://tracker.publicbt.com:80/
http://tracker.tntvillage.scambioetico.org:2710/scrape
http://open.demonii.com:1337/scrape
http://tracker.coppersurfer.tk:6969/scrape
http://tracker.openbittorrent.com/scrape